OK.ru VF Dvdrip | Sabrina Carballo | Microsoft Announces Surface Hub 2S and Surface Hub 2X
harrisssharing.com - The Largest Bittorent System Login   |    Register
Latest Articles
Most searched
Hot torrents
Movie Torrents
View Torrent Info: Bad Samaritan (2018) [720p] [YTS] [YIFY]
View Torrent Info: The Miracle Season (2018) [720p] [YTS] [YIFY]
View Torrent Info: Radius (2017) [720p] [YTS] [YIFY]
View Torrent Info: Andover (2018) [720p] [YTS] [YIFY]
View Torrent Info: God's Not Dead: A Light in Darkness (2018) [720p] [YTS] [YIFY]
View Torrent Info: First Reformed (2017) [720p] [YTS] [YIFY]
View Torrent Info: Kaala (2018) [720p] [YTS] [YIFY]
View Torrent Info: Comedy Central Roast of Bruce Willis (2018) [720p] [YTS] [YIFY]
View Torrent Info: The Guernsey Literary and Potato Peel Pie Society (2018) [720p] [YTS] [YIFY]
View Torrent Info: Til Death Do Us Part (2017) [720p] [YTS] [YIFY]
Hot torrents
TV Torrents
View Torrent Info: Elementary.S06E14.HDTV.x264-KILLERS[eztv]
View Torrent Info: Better.Call.Saul.S04E01.HDTV.x264-SVA[eztv]
View Torrent Info: Salvation.S02E07.HDTV.x264-SVA[eztv]
View Torrent Info: Preacher.S03E07.HDTV.x264-SVA[eztv]
View Torrent Info: The.100.S05E12.WEB.x264-TBS[eztv]
View Torrent Info: The.Originals.S05E13.WEB.x264-TBS[eztv]
View Torrent Info: Marvels.Cloak.and.Dagger.S01E10.WEB.x264-TBS[eztv]
View Torrent Info: Quantico.S03E13.WEB.x264-TBS[eztv]
View Torrent Info: Last.Week.Tonight.With.John.Oliver.S05E19.HDTV.x264-UAV[eztv]
View Torrent Info: Sharp.Objects.S01E05.WEB.H264-DEFLATE[eztv]
harrisssharing.com > Categories > Movies torrents > Divx/Xvid torrents


Browse Movies torrents

Oceans.8.2018.720p.HD-TS.X264.MP3.LLG torrent



Download torrent: Download Oceans.8.2018.720p.HD-TS.X264.MP3.LLG torrent Magnet link Bookmark Torrent: Oceans.8.2018.720p.HD-TS.X264.MP3.LLG Oceans.8.2018.720p.HD-TS.X264.MP3.LLG torrent | if not working, try instead: Magnet Link
Info hash: 716158A96938FDBC65623DC80604F29757085282
Category: Categories > Movies torrents > Divx/Xvid torrents
Trackers:
2    View all torrent trackers >
Health:
 seeds: 45 ,  leechers: 9 |  Update >
Torrent language:  
Total Size: 1.20 GB
Torrent status: Added by trusted uploader Added by trusted uploader Trusted Uploader Site Friend Superman Sun
Uploader: Trusted Uploader Site Friend Superman Sun
Torrent added: 2018-06-13 19:12:58
 

Download Oceans.8.2018.720p.HD-TS.X264.MP3.LLG torrent if not working, try downloading torrent using Download Oceans.8.2018.720p.HD-TS.X264.MP3.LLG via Magnet Link




Torrent Description

******************************Thumbnail:**********************



******************************Screenshots:********************

Screenshot 1

Screenshot 2

Screenshot 3

Screenshot 4

Screenshot 5

Screenshot 6

Screenshot 7

Screenshot 8

Screenshot 9

Screenshot 0

**************************************************************

Complete name : Oceans.8.2018.720p.HD-TS.X264.MP3.LLG.mp4
Format : MPEG-4
Format profile : Base Media
Codec ID : isom (isom/iso2/avc1/mp41)
File size : 1.19 GiB
Duration : 1 h 43 min
Overall bit rate : 1 637 kb/s
Writing application : Lavf57.56.101

Video
ID : 1
Format : AVC
Format/Info : Advanced Video Codec
Format profile : [email protected]
Format settings : CABAC / 4 Ref Frames
Format settings, CABAC : Yes
Format settings, RefFrames : 4 frames
Codec ID : avc1
Codec ID/Info : Advanced Video Coding
Duration : 1 h 43 min
Bit rate : 1 500 kb/s
Width : 1 280 pixels
Height : 536 pixels
Display aspect ratio : 2.40:1
Frame rate mode : Constant
Frame rate : 23.976 (23976/1000) FPS
Color space : YUV
Chroma subsampling : 4:2:0
Bit depth : 8 bits
Scan type : Progressive
Bits/(Pixel*Frame) : 0.091
Stream size : 1.09 GiB (92%)


Audio
ID : 2
Format : MPEG Audio
Format version : Version 1
Format profile : Layer 3
Format settings : Joint stereo / MS Stereo
Codec ID : mp4a-6B
Duration : 1 h 43 min
Bit rate mode : Constant
Bit rate : 128 kb/s
Channel(s) : 2 channels
Sampling rate : 44.1 kHz
Compression mode : Lossy
Stream size : 94.9 MiB (8%)
Writing library : LAME3.99.5
Default : Yes
Alternate group : 1



#LifeLongg -> To avoid fakes, ALWAYS check that the torrent was added on harrisssharing.com by LifeLongg

http://harrisssharing.com/



Download Oceans.8.2018.720p.HD-TS.X264.MP3.LLG torrent


Comments (please add your comment)
1
posted by megkar (2018-06-14 11:53:28)
megkar avatar hey hey hey wheres everybody??





Home - Browse Torrents - Upload Torrent - Stat - Forum - FAQ - Login
harrisssharing.com is in compliance with copyrights
2006-2018 harrisssharing.com