Our Time Will Come | gandi baat web series | IMDb: 7.6 S1E22 Reign - Season 1
harrisssharing.com - The Largest Bittorent System Login   |    Register
Latest Articles
Most searched
Hot torrents
Movie Torrents
View Torrent Info: Billionaire Boys Club (2018) [720p] [YTS] [YIFY]
View Torrent Info: Battalion (2018) [720p] [YTS] [YIFY]
View Torrent Info: Godzilla: City on the Edge of Battle (2018) [720p] [YTS] [YIFY]
View Torrent Info: Ghost Stories (2017) [720p] [YTS] [YIFY]
View Torrent Info: Robin Williams: Come Inside My Mind (2018) [720p] [YTS] [YIFY]
View Torrent Info: Relentless (2018) [720p] [YTS] [YIFY]
View Torrent Info: Tango One (2018) [720p] [YTS] [YIFY]
View Torrent Info: Rosy (2018) [720p] [YTS] [YIFY]
View Torrent Info: Sara's Notebook (2018) [720p] [YTS] [YIFY]
View Torrent Info: The Devil's Doorway (2018) [720p] [YTS] [YIFY]
Hot torrents
TV Torrents
View Torrent Info: The.100.S05E10.HDTV.x264-SVA[eztv]
View Torrent Info: Marvels.Cloak.and.Dagger.S01E08.WEB.x264-TBS[eztv]
View Torrent Info: Power.2014.S05E03.WEB.H264-DEFLATE[eztv]
View Torrent Info: Preacher.S03E04.HDTV.x264-SVA[eztv]
View Torrent Info: Shooter.S03E05.HDTV.x264-SVA[eztv]
View Torrent Info: Condor.S01E06.WEBRip.x264-PBS[eztv]
View Torrent Info: Killjoys.S04E01.HDTV.x264-LucidTV[eztv]
View Torrent Info: The.Originals.S05E11.WEB.x264-TBS[eztv]
View Torrent Info: Sharp.Objects.S01E02.WEB.H264-DEFLATE[eztv]
View Torrent Info: Code.Black.S03E13.HDTV.x264-KILLERS[eztv]
harrisssharing.com > Categories > Movies torrents > HD torrents


Browse Movies torrents

The Martian(2015)1080p Blu-Ray Rip[DaScubaDude] torrent



Download torrent: Download The Martian(2015)1080p Blu-Ray Rip[DaScubaDude] torrent Magnet link Bookmark Torrent: The Martian(2015)1080p Blu-Ray Rip[DaScubaDude] The Martian(2015)1080p Blu-Ray Rip[DaScubaDude] torrent | if not working, try instead: Magnet Link
Info hash: 7D021A9A99422678EF107CAB5F05653C0F36CAF9
Category: Categories > Movies torrents > HD torrents
Trackers:
7    View all torrent trackers >
Health:
 seeds: 0 ,  leechers: 0 |  Update >
Torrent language:  
Total Size: 2.90 GB
Torrent status: Added by trusted uploader Added by trusted uploader Trusted Uploader Site Friend Superman Sun
Uploader: Trusted Uploader Site Friend Superman Sun
Torrent added: 2018-06-13 20:23:50
 

Download The Martian(2015)1080p Blu-Ray Rip[DaScubaDude] torrent if not working, try downloading torrent using Download The Martian(2015)1080p Blu-Ray Rip[DaScubaDude] via Magnet Link




Torrent Description


[youtube]ej3ioOneTy8[/youtube]
IMDb Info for this film
General
Complete name : The Martian\The Martian T00-1.m4v
Format : MPEG-4
Format profile : Base Media / Version 2
Codec ID : mp42 (isom/iso2/avc1/mp41)
File size : 2.85 GiB
Duration : 2 h 21 min
Overall bit rate mode : Variable
Overall bit rate : 2 878 kb/s
Movie name : The Martian
Encoded date : UTC 2018-06-12 21:40:52
Tagged date : UTC 2018-06-12 21:40:52
Writing application : HandBrake 1.0.7 2017040900

Video
ID : 1
Format : AVC
Format/Info : Advanced Video Codec
Format profile : [email protected]
Format settings : CABAC / 4 Ref Frames
Format settings, CABAC : Yes
Format settings, RefFrames : 4 frames
Codec ID : avc1
Codec ID/Info : Advanced Video Coding
Duration : 2 h 21 min
Bit rate : 2 711 kb/s
Width : 1 920 pixels
Height : 800 pixels
Display aspect ratio : 2.40:1
Frame rate mode : Variable
Frame rate : 23.976 (24000/1001) FPS
Minimum frame rate : 23.974 FPS
Maximum frame rate : 23.981 FPS
Color space : YUV
Chroma subsampling : 4:2:0
Bit depth : 8 bits
Scan type : Progressive
Bits/(Pixel*Frame) : 0.074
Stream size : 2.68 GiB (94%)
Writing library : x264 core 148 r2708 86b7198
Encoding settings : cabac=1 / ref=2 / deblock=1:0:0 / analyse=0x1:0x111 / me=hex / subme=6 / psy=1 / psy_rd=1.00:0.00 / mixed_ref=1 / me_range=16 / chroma_me=1 / trellis=1 / 8x8dct=0 / cqm=0 / deadzone=21,11 / fast_pskip=1 / chroma_qp_offset=-2 / threads=3 / lookahead_threads=1 / sliced_threads=0 / nr=0 / decimate=1 / interlaced=0 / bluray_compat=0 / constrained_intra=0 / bframes=3 / b_pyramid=2 / b_adapt=1 / b_bias=0 / direct=1 / weightb=1 / open_gop=0 / weightp=1 / keyint=240 / keyint_min=24 / scenecut=40 / intra_refresh=0 / rc_lookahead=30 / rc=crf / mbtree=1 / crf=22.0 / qcomp=0.60 / qpmin=0 / qpmax=69 / qpstep=4 / vbv_maxrate=20000 / vbv_bufsize=25000 / crf_max=0.0 / nal_hrd=none / filler=0 / ip_ratio=1.40 / aq=1:1.00
Encoded date : UTC 2018-06-12 21:40:52
Tagged date : UTC 2018-06-12 21:40:52
Color range : Limited
Color primaries : BT.709
Transfer characteristics : BT.709
Matrix coefficients : BT.709
Menus : 3

Audio
ID : 2
Format : AAC
Format/Info : Advanced Audio Codec
Format profile : LC
Codec ID : mp4a-40-2
Duration : 2 h 21 min
Bit rate mode : Variable
Bit rate : 160 kb/s
Channel(s) : 2 channels
Channel positions : Front: L R
Sampling rate : 48.0 kHz
Frame rate : 46.875 FPS (1024 SPF)
Compression mode : Lossy
Stream size : 162 MiB (6%)
Title : Stereo / Stereo
Language : English
Default : Yes
Alternate group : 1
Encoded date : UTC 2018-06-12 21:40:52
Tagged date : UTC 2018-06-12 21:40:52
Menus : 3

Menu
ID : 3
Codec ID : text
Duration : 2 h 21 min
Language : English
Encoded date : UTC 2018-06-12 21:40:52
Tagged date : UTC 2018-06-12 21:40:52
Menu For : 1,2
00:00:00.000 : Chapter 1
00:03:22.327 : Chapter 2
00:10:08.608 : Chapter 3
00:15:24.674 : Chapter 4
00:18:25.271 : Chapter 5
00:21:34.502 : Chapter 6
00:24:28.092 : Chapter 7
00:28:52.773 : Chapter 8
00:31:36.645 : Chapter 9
00:34:21.101 : Chapter 10
00:39:13.518 : Chapter 11
00:41:21.771 : Chapter 12
00:46:23.531 : Chapter 13
00:49:25.129 : Chapter 14
00:56:15.831 : Chapter 15
00:59:40.494 : Chapter 16
01:02:23.907 : Chapter 17
01:06:53.218 : Chapter 18
01:09:53.064 : Chapter 19
01:13:51.302 : Chapter 20
01:18:38.297 : Chapter 21
01:22:52.468 : Chapter 22
01:30:41.353 : Chapter 23
01:37:30.178 : Chapter 24
01:43:32.081 : Chapter 25
01:46:16.287 : Chapter 26
01:50:18.862 : Chapter 27
01:54:08.050 : Chapter 28
01:57:49.437 : Chapter 29
02:04:41.683 : Chapter 30
02:11:05.733 : Chapter 31
02:13:28.876 : Chapter 32
Bit rate mode : VBR



#Dascubadude -> To avoid fakes, ALWAYS check that the torrent was added on harrisssharing.com by Dascubadude

http://harrisssharing.com/



Download The Martian(2015)1080p Blu-Ray Rip[DaScubaDude] torrent


Comments (please add your comment)
No comments



Home - Browse Torrents - Upload Torrent - Stat - Forum - FAQ - Login
harrisssharing.com is in compliance with copyrights
2006-2018 harrisssharing.com