Ashampoo Snap V6.0.3. | Ashampoo Snap v7.0.5. | Ashampoo UnInstaller v5.03.00.
harrisssharing.com - The Largest Bittorent System Login   |    Register
Latest Articles
Most searched
Hot torrents
Movie Torrents
View Torrent Info: Outlaw King (2018) [720p] [YTS] [YIFY]
View Torrent Info: River Runs Red (2018) [720p] [YTS] [YIFY]
View Torrent Info: Time Freak (2018) [720p] [YTS] [YIFY]
View Torrent Info: Searching (2018) [720p] [YTS] [YIFY]
View Torrent Info: In a Relationship (2018) [720p] [YTS] [YIFY]
View Torrent Info: Not Cinderella's Type (2018) [720p] [YTS] [YIFY]
View Torrent Info: The Librarian: Quest for the Spear (2004) [720p] [YTS] [YIFY]
View Torrent Info: The Librarian III: The Curse of the Judas Chalice (2008) [720p] [YTS] [YIFY]
View Torrent Info: Puzzle (2018) [720p] [YTS] [YIFY]
View Torrent Info: Penance (2018) [720p] [YTS] [YIFY]
Hot torrents
TV Torrents
View Torrent Info: The.Walking.Dead.S09E06.HDTV.x264-SVA[eztv]
View Torrent Info: Arrow.S07E05.HDTV.x264-SVA[eztv]
View Torrent Info: DCs.Legends.of.Tomorrow.S04E04.HDTV.x264-SVA[eztv]
View Torrent Info: The.Good.Doctor.S02E07.HDTV.x264-KILLERS[eztv]
View Torrent Info: The.Flash.2014.S05E05.HDTV.x264-SVA[eztv]
View Torrent Info: Supergirl.S04E05.HDTV.x264-SVA[eztv]
View Torrent Info: The.Last.Ship.S05E10.WEBRip.x264-TBS[eztv]
View Torrent Info: fbi.s01e07.hdtv.x264-sva[eztv]
View Torrent Info: Manifest.S01E07.HDTV.x264-CRAVERS[eztv]
View Torrent Info: Magnum.P.I.2018.S01E08.HDTV.x264-SVA[eztv]
harrisssharing.com > Categories > Movies torrents > HD torrents


Browse Movies torrents

River Runs Red 2018 Movies HDRip x264 5.1 with Sample ☻rDX☻ torrent



Download torrent: Download River Runs Red 2018 Movies HDRip x264 5.1 with Sample ☻rDX☻ torrent Magnet link Bookmark Torrent: River Runs Red 2018 Movies HDRip x264 5.1 with Sample ☻rDX☻ River Runs Red 2018 Movies HDRip x264 5.1 with Sample ☻rDX☻ torrent | if not working, try instead: Magnet Link
Info hash: CC0340A62BC0B67D13DAC5C9F186F7A06FFD4B1B
Category: Categories > Movies torrents > HD torrents
Trackers:
14    View all torrent trackers >
Health:
 seeds: 0 ,  leechers: 0 |  Update >
Torrent language:  
Total Size: 786.70 MB
Torrent status: Added by trusted uploader Added by trusted uploader Trusted Uploader Site Friend Superman Sun
Uploader: Trusted Uploader Site Friend Superman Sun
Torrent added: 2018-11-09 12:41:34
 

Download River Runs Red 2018 Movies HDRip x264 5.1 with Sample ☻rDX☻ torrent if not working, try downloading torrent using Download River Runs Red 2018 Movies HDRip x264 5.1 with Sample ☻rDX☻ via Magnet Link




Torrent Description

River Runs Red 2018 Movies HDRip x264 5.1 with Sample ☻rDX☻
===============================================================================================

SCREEN SHOTS:



or

http://iphonehosting.eu/2018/11/a/medicine/1.html

File size : 779 MiB
Duration : 1 h 34 min
Overall bit rate mode : Constant
Overall bit rate : 1 156 kb/s
Movie name : River Runs Red 2018 Movies HDRip x264 5.1 ☻rDX☻

Video
ID : 2
Format : AVC
Format/Info : Advanced Video Codec
Format profile : [email protected]
Format settings, CABAC : Yes
Format settings, ReFrames : 2 frames
Format settings, GOP : M=1, N=12
Codec ID : V_MPEG4/ISO/AVC
Duration : 1 h 34 min
Bit rate mode : Constant
Bit rate : 965 kb/s
Width : 720 pixels
Height : 304 pixels
Display aspect ratio : 2.35:1
Frame rate mode : Constant
Frame rate : 23.976 (24000/1001) FPS
Color space : YUV
Chroma subsampling : 4:2:0
Bit depth : 8 bits
Scan type : Progressive
Bits/(Pixel*Frame) : 0.184
Stream size : 634 MiB (81%)
Title : ☻rDX☻
Default : Yes
Forced : No

Audio
ID : 1
Format : AC-3
Format/Info : Audio Coding 3
Mode extension : CM (complete main)
Format settings, Endianness : Big
Codec ID : A_AC3
Duration : 1 h 34 min
Bit rate mode : Constant
Bit rate : 192 kb/s
Channel(s) : 6 channels
Channel positions : Front: L C R, Side: L R, LFE
Sampling rate : 44.1 kHz
Frame rate : 28.711 FPS (1536 spf)
Bit depth : 16 bits
Compression mode : Lossy
Stream size : 129 MiB (17%)
Title : ☻rDX☻
Default : Yes
Forced : No

http://www.imdb.com/title/tt5843780



#nehalpuja -> To avoid fakes, ALWAYS check that the torrent was added on harrisssharing.com by nehalpuja

http://harrisssharing.com/



Download River Runs Red 2018 Movies HDRip x264 5.1 with Sample ☻rDX☻ torrent


Comments (please add your comment)
No comments



Home - Browse Torrents - Upload Torrent - Stat - Forum - FAQ - Login
harrisssharing.com is in compliance with copyrights
2006-2018 harrisssharing.com
Sitemap