Watch movie | Melissa Benoist | Mehcad Brooks
harrisssharing.com - The Largest Bittorent System Login   |    Register
Latest Articles
Most searched
Hot torrents
Movie Torrents
View Torrent Info: Mission: Impossible - Fallout (2018) [720p] [YTS] [YIFY]
View Torrent Info: Crazy Rich Asians (2018) [720p] [YTS] [YIFY]
View Torrent Info: Kin (2018) [720p] [YTS] [YIFY]
View Torrent Info: Robin Hood The Rebellion (2018) [720p] [YTS] [YIFY]
View Torrent Info: The Miseducation of Cameron Post (2018) [720p] [YTS] [YIFY]
View Torrent Info: Dog Days (2018) [720p] [YTS] [YIFY]
View Torrent Info: Alone We Fight (2018) [720p] [YTS] [YIFY]
View Torrent Info: Patrick (2018) [720p] [YTS] [YIFY]
View Torrent Info: The Veil (2017) [720p] [YTS] [YIFY]
View Torrent Info: Welcome to Mercy (2018) [720p] [YTS] [YIFY]
Hot torrents
TV Torrents
View Torrent Info: Young.Sheldon.S02E08.HDTV.x264-KILLERS[eztv]
View Torrent Info: The.Big.Bang.Theory.S12E08.HDTV.x264-SVA[eztv]
View Torrent Info: Arrow.S07E04.HDTV.x264-SVA
View Torrent Info: The.Big.Bang.Theory.S12E08.XviD-AFG[eztv]
View Torrent Info: Greys.Anatomy.S15E07.HDTV.x264-KILLERS[eztv]
View Torrent Info: Supernatural.S14E05.HDTV.x264-SVA[eztv]
View Torrent Info: The.Last.Ship.S05E09.XviD-AFG
View Torrent Info: Chicago.PD.S06E07.HDTV.x264-SVA[eztv]
View Torrent Info: Legacies.S01E03.HDTV.x264-SVA[eztv]
View Torrent Info: Criminal.Minds.S14E06.XviD-AFG[eztv]
harrisssharing.com > Categories > Movies torrents > HD torrents


Browse Movies torrents

18+ Here And Now 2018 Movies HDRip x264 5.1 with Sample ☻rDX☻ torrent



Download torrent: Download 18+ Here And Now 2018 Movies HDRip x264 5.1 with Sample ☻rDX☻ torrent Magnet link Bookmark Torrent: 18+ Here And Now 2018 Movies HDRip x264 5.1 with Sample ☻rDX☻ 18+ Here And Now 2018 Movies HDRip x264 5.1 with Sample ☻rDX☻ torrent | if not working, try instead: Magnet Link
Info hash: 6F2727FBC8E2E797B37F4E9B2E8DF77D01204F37
Category: Categories > Movies torrents > HD torrents
Trackers:
14    View all torrent trackers >
Health:
 seeds: 0 ,  leechers: 0 |  Update >
Torrent language:  
Total Size: 782.70 MB
Torrent status: Added by trusted uploader Added by trusted uploader Trusted Uploader Site Friend Superman Sun
Uploader: Trusted Uploader Site Friend Superman Sun
Torrent added: 2018-11-09 12:41:37
 

Download 18+ Here And Now 2018 Movies HDRip x264 5.1 with Sample ☻rDX☻ torrent if not working, try downloading torrent using Download 18+ Here And Now 2018 Movies HDRip x264 5.1 with Sample ☻rDX☻ via Magnet Link




Torrent Description

18+ Here And Now 2018 Movies HDRip x264 5.1 with Sample ☻rDX☻
===============================================================================================

SCREEN SHOTS:



or

http://iphonehosting.eu/2018/11/a/microsoft/1.html

File size : 774 MiB
Duration : 1 h 31 min
Overall bit rate mode : Constant
Overall bit rate : 1 189 kb/s
Movie name : Here And Now 2018 Movies HDRip x264 5.1 ☻rDX☻

Video
ID : 2
Format : AVC
Format/Info : Advanced Video Codec
Format profile : [email protected]
Format settings, CABAC : Yes
Format settings, ReFrames : 2 frames
Format settings, GOP : M=1, N=12
Codec ID : V_MPEG4/ISO/AVC
Duration : 1 h 31 min
Bit rate mode : Constant
Bit rate : 998 kb/s
Width : 720 pixels
Height : 304 pixels
Display aspect ratio : 2.35:1
Frame rate mode : Constant
Frame rate : 23.976 (24000/1001) FPS
Color space : YUV
Chroma subsampling : 4:2:0
Bit depth : 8 bits
Scan type : Progressive
Bits/(Pixel*Frame) : 0.190
Stream size : 634 MiB (82%)
Title : ☻rDX☻
Language : English
Default : Yes
Forced : No

Audio
ID : 1
Format : AC-3
Format/Info : Audio Coding 3
Mode extension : CM (complete main)
Format settings, Endianness : Big
Codec ID : A_AC3
Duration : 1 h 31 min
Bit rate mode : Constant
Bit rate : 192 kb/s
Channel(s) : 6 channels
Channel positions : Front: L C R, Side: L R, LFE
Sampling rate : 44.1 kHz
Frame rate : 28.711 FPS (1536 spf)
Bit depth : 16 bits
Compression mode : Lossy
Stream size : 125 MiB (16%)
Title : ☻rDX☻
Default : Yes
Forced : No

http://www.imdb.com/title/tt5923012



#nehalpuja -> To avoid fakes, ALWAYS check that the torrent was added on harrisssharing.com by nehalpuja

http://harrisssharing.com/



Download 18+ Here And Now 2018 Movies HDRip x264 5.1 with Sample ☻rDX☻ torrent


Comments (please add your comment)
No comments



Home - Browse Torrents - Upload Torrent - Stat - Forum - FAQ - Login
harrisssharing.com is in compliance with copyrights
2006-2018 harrisssharing.com
Sitemap