How to Train Your Dragon 2 (2014) 1080p BRRip 6CH 1.7GB | Simon Yam | Wake Up, Girls! Beyond the Bottom
harrisssharing.com - The Largest Bittorent System Login   |    Register
Latest Articles
Most searched
Hot torrents
Movie Torrents
View Torrent Info: Outlaw King (2018) [720p] [YTS] [YIFY]
View Torrent Info: Searching (2018) [720p] [YTS] [YIFY]
View Torrent Info: River Runs Red (2018) [720p] [YTS] [YIFY]
View Torrent Info: Time Freak (2018) [720p] [YTS] [YIFY]
View Torrent Info: In a Relationship (2018) [720p] [YTS] [YIFY]
View Torrent Info: Not Cinderella's Type (2018) [720p] [YTS] [YIFY]
View Torrent Info: The Librarian: Quest for the Spear (2004) [720p] [YTS] [YIFY]
View Torrent Info: The Librarian III: The Curse of the Judas Chalice (2008) [720p] [YTS] [YIFY]
View Torrent Info: Puzzle (2018) [720p] [YTS] [YIFY]
View Torrent Info: Kevin Smith: Silent But Deadly (2018) [720p] [YTS] [YIFY]
Hot torrents
TV Torrents
View Torrent Info: The.Walking.Dead.S09E06.HDTV.x264-SVA[eztv]
View Torrent Info: The.Flash.2014.S05E05.HDTV.x264-SVA[eztv]
View Torrent Info: Arrow.S07E05.HDTV.x264-SVA[eztv]
View Torrent Info: DCs.Legends.of.Tomorrow.S04E04.HDTV.x264-SVA[eztv]
View Torrent Info: The.Good.Doctor.S02E07.HDTV.x264-KILLERS[eztv]
View Torrent Info: Supergirl.S04E05.HDTV.x264-SVA[eztv]
View Torrent Info: fbi.s01e07.hdtv.x264-sva[eztv]
View Torrent Info: The.Last.Ship.S05E10.WEBRip.x264-TBS[eztv]
View Torrent Info: lethal.weapon.s03e07.web.x264-tbs[eztv]
View Torrent Info: Manifest.S01E07.HDTV.x264-CRAVERS[eztv]
harrisssharing.com > Categories > Movies torrents > Bollywood/Desi torrents


Browse Movies torrents

Paltan (2018) Hindi 720p WEB-HD AVC AAC-Sun George torrent



Download torrent: Download Paltan (2018) Hindi 720p WEB-HD AVC AAC-Sun George torrent Magnet link Bookmark Torrent: Paltan (2018) Hindi 720p WEB-HD AVC AAC-Sun George Paltan (2018) Hindi 720p WEB-HD AVC AAC-Sun George torrent | if not working, try instead: Magnet Link
Info hash: 9F505EF52C8342D5C252FAC6C44333DEF1BCCA7D
Category: Categories > Movies torrents > Bollywood/Desi torrents
Trackers:
15    View all torrent trackers >
Health:
 seeds: 4 ,  leechers: 10 |  Update >
Total Size: 1.70 GB
Torrent status: Added by trusted uploader Added by trusted uploader Trusted Uploader Site Friend Superman Sun
Uploader: Trusted Uploader Site Friend Superman Sun
Torrent added: 2018-11-09 14:16:48
 

Download Paltan (2018) Hindi 720p WEB-HD AVC AAC-Sun George torrent if not working, try downloading torrent using Download Paltan (2018) Hindi 720p WEB-HD AVC AAC-Sun George via Magnet Link




Torrent Description

Paltan (2018) Hindi 720p WEB-HD AVC AAC-Sun George



http://www.imdb.com/title/tt7162758/






===================================================================


General
Format : Matroska
Format version : Version 4 / Version 2
File size : 1.73 GiB
Duration : 2 h 27 min
Overall bit rate : 1 676 kb/s
Movie name : Paltan (2018) Hindi 720p WEB-HD AVC AAC-Sun George


===================================================================


Video
ID : 1
Format : AVC
Format/Info : Advanced Video Codec
Format profile : [email protected]
Format settings : CABAC / 4 Ref Frames
Format settings, CABAC : Yes
Format settings, RefFrames : 4 frames
Codec ID : V_MPEG4/ISO/AVC
Duration : 2 h 27 min
Bit rate : 1 405 kb/s
Width : 1 280 pixels
Height : 720 pixels
Display aspect ratio : 16:9
Frame rate mode : Constant
Frame rate : 25.000 FPS
Color space : YUV
Chroma subsampling : 4:2:0
Bit depth : 8 bits
Scan type : Progressive
Bits/(Pixel*Frame) : 0.061
Stream size : 1.45 GiB (84%)
Title : Sun George


===================================================================


Audio
ID : 2
Format : AAC
Format/Info : Advanced Audio Codec
Format profile : LC
Codec ID : A_AAC-2
Duration : 2 h 27 min
Bit rate : 265 kb/s
Channel(s) : 2 channels
Channel positions : Front: L R
Sampling rate : 48.0 kHz
Frame rate : 46.875 FPS (1024 SPF)
Compression mode : Lossy
Stream size : 284 MiB (16%)
Title : Sun George
Writing library : Lavc57.42.100 aac
Language : Hindi
Default : Yes
Forced : No
















#Sungeorge -> To avoid fakes, ALWAYS check that the torrent was added on harrisssharing.com by Sungeorge

http://harrisssharing.com/



Download Paltan (2018) Hindi 720p WEB-HD AVC AAC-Sun George torrent


Comments (please add your comment)
No comments



Home - Browse Torrents - Upload Torrent - Stat - Forum - FAQ - Login
harrisssharing.com is in compliance with copyrights
2006-2018 harrisssharing.com
Sitemap